fastshare
Chuggington Vesele vlacky
Vypnout statistiky
KATEGORIEPOSLEDNÍ PŘÍSPĚVKYPOSLEDNÍ OZNÁMENÍSTATISTIKY UŽIVATELE
Nick: Anonymous
Příspěvků: 3361
Hodnost: Warman
Varování: 0
---
Právě je 16 říj 2018, 18:33





Všechny časy jsou v UTC + 1 hodina


Pravidla fóra







Odeslat nové téma Odpovědět na téma  [ Příspěvků: 2 ] 
 Chuggington Vesele vlacky 
Autor Zpráva
Private
Private
Uživatelský avatar

Registrován: 11 zář 2008, 10:23
Příspěvky: 13
Příspěvek Chuggington Vesele vlacky

__.__

http://www.csfd.cz/film/258356-chuggington-vesele-vlacky/prehled/

Format : AVI
Format/Info : Audio Video Interleave
File size : 703 MiB
Duration : 1 h 0 min
Overall bit rate : 1 636 kb/s
Writing application : VirtualDubMod 1.5.4.1 (build 2178/release)
Writing library : VirtualDubMod build 2178/release

Video
ID : 0
Format : MPEG-4 Visual
Format profile : Advanced [email protected]
Format settings : BVOP1 / Custom Matrix
Format settings, BVOP : 1
Format settings, QPel : No
Format settings, GMC : No warppoints
Format settings, Matrix : Custom
Codec ID : XVID
Codec ID/Hint : XviD
Duration : 1 h 0 min
Bit rate : 1 405 kb/s
Width : 656 pixels
Height : 496 pixels
Display aspect ratio : 4:3
Frame rate : 25.000 FPS
Color space : YUV
Chroma subsampling : 4:2:0
Bit depth : 8 bits
Scan type : Progressive
Compression mode : Lossy
Bits/(Pixel*Frame) : 0.173
Stream size : 604 MiB (86%)
Writing library : XviD 1.2.1 (UTC 2008-12-04)

Audio
ID : 1
Format : AC-3
Format/Info : Audio Coding 3
Codec ID : 2000
Duration : 1 h 0 min
Bit rate mode : Constant
Bit rate : 224 kb/s
Channel(s) : 2 channels
Channel positions : Front: L R
Sampling rate : 48.0 kHz
Frame rate : 31.250 FPS (1536 SPF)
Bit depth : 16 bits
Compression mode : Lossy
Stream size : 96.3 MiB (14%)
Alignment : Split accross interleaves
Interleave, duration : 96 ms (2.40 video frames)
Interleave, preload duratio : 96 ms
Language : Czech
Service kind : Complete Main

)..(
http://fastshare.cz/10597775/chuggington-vesele-vlacky-1-dil.avi

)..(
http://fastshare.cz/10597846/chuggington-vesele-vlacky-2-dil.avi

)..(
http://fastshare.cz/10599876/chuggington-vesele-vlacky-3-dil.avi


12 říj 2018, 09:15
Profil
Private 1 st class
Private 1 st class
Uživatelský avatar

Registrován: 10 kvě 2009, 17:13
Příspěvky: 23
Příspěvek Re: Chuggington Vesele vlacky

|Toto do této sekce nepatří!!!!!! :shock:


12 říj 2018, 12:53
Profil
Zobrazit příspěvky za předchozí:  Seřadit podle  
Odeslat nové téma Odpovědět na téma  [ Příspěvků: 2 ] 

Všechny časy jsou v UTC + 1 hodina


Nemůžete zakládat nová témata v tomto fóru
Nemůžete odpovídat v tomto fóru
Nemůžete upravovat své příspěvky v tomto fóru
Nemůžete mazat své příspěvky v tomto fóru
Nemůžete přikládat soubory v tomto fóru









StahovaniZaSMS Pizza Modena MP3 free download