fastshare
Sedm psychopatů / Seven Psychopaths (2012)
Vypnout statistiky
KATEGORIEPOSLEDNÍ PŘÍSPĚVKYPOSLEDNÍ OZNÁMENÍSTATISTIKY UŽIVATELE
Nick: Anonymous
Příspěvků: 3361
Hodnost: Warman
Varování: 0
---
Právě je 21 črc 2018, 12:58





Všechny časy jsou v UTC + 1 hodina


Pravidla fóra







Odeslat nové téma Odpovědět na téma  [ Příspěvků: 17 ]  Přejít na stránku Předchozí  1, 2
 Sedm psychopatů / Seven Psychopaths (2012) 
Autor Zpráva
Master Sergant
Master Sergant

Registrován: 08 srp 2010, 16:42
Příspěvky: 141
Příspěvek Re: Sedm psychopatů / Seven Psychopaths (2012)

Sedm psychopatů / Seven Psychopaths (2012)
Seven.Psychopaths.2012.BRRip.XviD.CZ.mysterious

Re: Sedm psychopatů / Seven Psychopaths (2012)

Re: Sedm psychopatů / Seven Psychopaths (2012)

Re: Sedm psychopatů / Seven Psychopaths (2012)








Re: Sedm psychopatů / Seven Psychopaths (2012)

Hellshare.sk



Share-rapid.com



Re: Sedm psychopatů / Seven Psychopaths (2012)

No!

Re: Sedm psychopatů / Seven Psychopaths (2012)

Citace:
Ak sú linky v rovnakej velikosti sú kombinovatelné!
Ak sa objaví chyba pri rozbalovaní ,tak si pokazený part stiahnite znova!
Pri filmoch sú všetky screeny z daného releasu !
Nereuploadujem na iné serveri!
Vymazané linky už neupujem!
Moje Uploady neheslujem!
Moje súbory sú volne šíritelne na iné fóra!
Nahral pre vás Guthix!


10 črc 2013, 12:43
Profil
Warrant
Warrant

Registrován: 24 pro 2007, 06:49
Příspěvky: 167
Bydliště: Pod pařezem
Příspěvek Re: Sedm psychopatů / Seven Psychopaths (2012)

Sedm psychopatů / Seven Psychopaths (2012)


__.__


Scenárista Marty (Colin Farrell) se zoufale snaží dokončit svůj nejnovější scénář, ale chybí mu inspirace. Tu se rozhodne hledat u svých dvou kamarádů: poněkud výstředního a většinou neza-městnaného herce Billyho (Sam Rockwell) a silně nábožensky založeného Hanse (Christopher Walken), který má za sebou poměrně působivou kriminální minulost. Tihle dva se příležitostně živí krádežemi psů, které po vypsání odměny vrací jejich zazobaným páníčkům. Proti tomuhle výnosnému byznysu má velké výhrady Billyho okouzlující přítelkyně Angela (Olga Kurylenko

:-_-:
Re: Sedm psychopatů / Seven Psychopaths (2012)

info video-audio
General
Complete name : F:\Filmy\Sedm psychopatu (2012)CZ.avi
Format : AVI
Format/Info : Audio Video Interleave
File size : 1.65 GiB
Duration : 1 h 50 min
Overall bit rate : 2 140 kb/s
Writing application : VirtualDubMod 1.5.10.2 (build 2540/release)
Writing library : VirtualDubMod build 2540/release

Video
ID : 0
Format : MPEG-4 Visual
Format profile : Advanced [email protected]
Format settings : BVOP2 / QPel
Format settings, BVOP : 2
Format settings, QPel : Yes
Format settings, GMC : No warppoints
Format settings, Matrix : Default (H.263)
Codec ID : XVID
Codec ID/Hint : XviD
Duration : 1 h 50 min
Bit rate : 1 746 kb/s
Width : 720 pixels
Height : 304 pixels
Display aspect ratio : 2.35:1
Frame rate : 23.976 (24000/1001) FPS
Color space : YUV
Chroma subsampling : 4:2:0
Bit depth : 8 bits
Scan type : Progressive
Compression mode : Lossy
Bits/(Pixel*Frame) : 0.333
Stream size : 1.35 GiB (82%)
Writing library : XviD 1.2.1 (UTC 2008-12-04)

Audio
ID : 1
Format : AC-3
Format/Info : Audio Coding 3
Codec ID : 2000
Duration : 1 h 50 min
Bit rate mode : Constant
Bit rate : 384 kb/s
Channel(s) : 6 channels
Channel positions : Front: L C R, Side: L R, LFE
Sampling rate : 48.0 kHz
Frame rate : 31.250 FPS (1536 SPF)
Bit depth : 16 bits
Compression mode : Lossy
Stream size : 303 MiB (18%)
Alignment : Split accross interleaves
Interleave, duration : 42 ms (1.00 video frame)
Interleave, preload duration : 500 ms
Service kind : Complete Main


)..(


13 bře 2018, 13:02
Profil
Zobrazit příspěvky za předchozí:  Seřadit podle  
Odeslat nové téma Odpovědět na téma  [ Příspěvků: 17 ]  Přejít na stránku Předchozí  1, 2

Všechny časy jsou v UTC + 1 hodina


Nemůžete zakládat nová témata v tomto fóru
Nemůžete odpovídat v tomto fóru
Nemůžete upravovat své příspěvky v tomto fóru
Nemůžete mazat své příspěvky v tomto fóru
Nemůžete přikládat soubory v tomto fóru









StahovaniZaSMS Pizza Modena MP3 free download