fastshare
The Expendables - Trilogy (2010 - 2014)
Vypnout statistiky
KATEGORIEPOSLEDNÍ PŘÍSPĚVKYPOSLEDNÍ OZNÁMENÍSTATISTIKY UŽIVATELE
Nick: Anonymous
Příspěvků: 3367
Hodnost: Warman
Varování: 0
---
Právě je 20 kvě 2018, 11:18





Všechny časy jsou v UTC + 1 hodina


Pravidla fóra







Odeslat nové téma Odpovědět na téma  [ Příspěvků: 2 ] 
 The Expendables - Trilogy (2010 - 2014) 
Autor Zpráva
Captain
Captain
Uživatelský avatar

Registrován: 28 črc 2009, 12:41
Příspěvky: 256
Příspěvek The Expendables - Trilogy (2010 - 2014)

The Expendables - Trilogy (2010 - 2014)

The Expendables - Trilogy (2010 - 2014) - Anub1ss

Jedná se o kompletní kolekci filmu The Expendables Postradatelní 1 až 3. Můj Blu-ray rip
-------------------------------------------------------------------------------------------------------------------------

1.) The Expendables [Director's cut] (2010)

Režisérský sestřih, anglicky Director's cut, je označení pro dodatečně zpracovanou "režisérskou verzi" filmu, který byl při svém prvním uvedení z komerčních či cenzurních důvodů střihově upraven - v rozporu se záměrem režiséra.

Akční / Dobrodružný / Thriller

USA, 2010, 103 min (Director's cut: 113 min)

Režie: Sylvester Stallone
Scénář: Dave Callaham, Sylvester Stallone
Kamera: Jeffrey L. Kimball
Hudba: Brian Tyler

Hrají:
Sylvester Stallone, Jason Statham, Jet Li, Dolph Lundgren, Eric Roberts, Randy Couture, Steve Austin, David Zayas, Giselle Itié, Charisma Carpenter, Gary Daniels, Terry Crews, Mickey Rourke, Arnold Schwarzenegger, Bruce Willis, David Joseph Martinez

Citace:
http://www.csfd.cz/film/249788-expendables-postradatelni/


Kvalita Blu-ray ripu:

1920:1080 H.264
Codec: H.264 - MPEG-4 AVC
Formát: AVI
Celkový BitRate: 8695 Kbps
Video BitRate: 8055 Kbps
23-25 fps, 48 Khz
6,88 GB
Audio: AC3 5.1 640 kbps (48000Hz) CZ / Czech forced titulky externě!

Download Fastshare:


Czech forced titulky externě!

-------------------------------------------------------------------------------------------------------------------------

2.) The Expendables 2 (2012)

Akční / Dobrodružný / Thriller

USA, 2012, 103 min

Režie: Simon West
Scénář: Sylvester Stallone
Kamera: Shelly Johnson
Hudba: Brian Tyler

Hrají:
Sylvester Stallone, Jason Statham, Liam Hemsworth, Dolph Lundgren, Jean-Claude Van Damme, Jet Li, Terry Crews, Randy Couture, Arnold Schwarzenegger, Bruce Willis, Chuck Norris, Scott Adkins, Nan Yu, Amanda Ooms, Charisma Carpenter, Nikolette Noel, George Zlatarev, Velislav Pavlov

Citace:
http://www.csfd.cz/film/287500-expendables-postradatelni-2/


Kvalita Blu-ray ripu:

1920:1080 H.264
Codec: H.264 - MPEG-4 AVC
Formát: AVI
Celkový BitRate: 8375 Kbps
Video BitRate: 8055 Kbps
23-25 fps, 48 Khz
5,78 GB
Audio: AC3 5.1 320 kbps (48000Hz) CZ / Czech forced titulky externě!

Download Fastshare:


Czech forced titulky externě!

-------------------------------------------------------------------------------------------------------------------------

3.) The Expendables 3 [Unrated Cut] (2014)

UNRATED CUT - Necenzurovaná verze!

Akční / Thriller / Dobrodružný

USA, 2014, 126 min

Režie: Patrick Hughes
Scénář: Sylvester Stallone, Katrin Benedikt, Creighton Rothenberger
Kamera: Peter Menzies Jr.
Hudba: Brian Tyler

Hrají:
Sylvester Stallone, Jason Statham, Wesley Snipes, Antonio Banderas, Dolph Lundgren, Mel Gibson, Kellan Lutz, Harrison Ford, Randy Couture, Ronda Rousey, Terry Crews, Arnold Schwarzenegger, Jet Li, Kelsey Grammer, Robert Davi, Natalie Burn, Sarai Givaty, Lisbeth Olofsson, Victor Ortiz, Velizar Binev, Bashar Rahal, Glen Powell

Citace:
http://www.csfd.cz/film/323531-expendables-postradatelni-3/


Kvalita Blu-ray ripu:

1920:1080 H.264
Codec: H.264 - MPEG-4 AVC
Formát: AVI
Celkový BitRate: 8695 Kbps
Video BitRate: 8055 Kbps
23-25 fps, 48 Khz
7,69 GB
Audio: AC3 5.1 640 kbps (48000Hz) CZ / Czech forced titulky externě!

Download Fastshare:


Czech forced titulky externě!

_________________
OS: Windows 10 PRO x64
CPU: AMD FX 8350 Black (OC: 4.8 GHz)
MB: Asus M5A97 PRO
RAM: ADATA XPG V1.0 Red 16GB (4x4GB) DDR3 2133
GPU: MSI Radeon RX 480 GAMING X 8GB
Zdroj: Forton AurumS 600 WATT
Disk: Kingston HyperX Savage - 240GB + TOSHIBA - X300 - 4TB 7200rpm 128MB buffer


03 led 2015, 01:41
Profil
Colonel 3 rd class
Colonel 3 rd class

Registrován: 15 zář 2017, 11:53
Příspěvky: 474
Příspěvek Re: The Expendables - Trilogy (2010 - 2014)

The Expendables - Trilogy (2010 - 2014)


Re: The Expendables - Trilogy (2010 - 2014)





The.Expendables.2010.720p.BDRip.x264.DD5.1.CZ


__.__
Format : Matroska
Format version : Version 2
File size : 1.62 GiB
Duration : 1h 53mn
Overall bit rate : 2 049 Kbps

Video
ID : 1
Format : AVC
Format/Info : Advanced Video Codec
Format profile : [email protected]
Format settings, CABAC : Yes
Format settings, ReFrames : 2 frames
Codec ID : V_MPEG4/ISO/AVC
Duration : 1h 53mn
Bit rate : 1 633 Kbps
Width : 1 280 pixels
Height : 532 pixels
Display aspect ratio : 2.40:1
Frame rate : 23.976 fps
Color space : YUV
Chroma subsampling : 4:2:0
Bit depth : 8 bits
Scan type : Progressive
Bits/(Pixel*Frame) : 0.100
Stream size : 1.23 GiB (76%)

Audio
ID : 2
Format : AC-3
Format/Info : Audio Coding 3
Mode extension : CM (complete main)
Codec ID : A_AC3
Duration : 1h 53mn
Bit rate mode : Constant
Bit rate : 448 Kbps
Channel(s) : 6 channels
Channel positions : Front: L C R, Side: L R, LFE
Sampling rate : 48.0 KHz
Bit depth : 16 bits
Compression mode : Lossy
Stream size : 363 MiB (22%)
Language : Czech



)..(




The.Expendables.2.2012.720p.BDRip.x264.DD5.1.CZ





__.__
Format : Matroska
Format version : Version 4 / Version 2
File size : 3.68 GiB
Duration : 1h 42mn
Overall bit rate : 5 127 Kbps

Video
ID : 1
Format : AVC
Format/Info : Advanced Video Codec
Format profile : [email protected]
Format settings, CABAC : Yes
Format settings, ReFrames : 8 frames
Codec ID : V_MPEG4/ISO/AVC
Duration : 1h 42mn
Bit rate : 4 577 Kbps
Width : 1 280 pixels
Height : 528 pixels
Display aspect ratio : 2.40:1
Frame rate : 23.976 fps
Color space : YUV
Chroma subsampling : 4:2:0
Bit depth : 8 bits
Scan type : Progressive
Bits/(Pixel*Frame) : 0.282
Stream size : 3.28 GiB (89%)

Audio
ID : 2
Format : AC-3
Format/Info : Audio Coding 3
Mode extension : CM (complete main)
Codec ID : A_AC3
Duration : 1h 42mn
Bit rate mode : Constant
Bit rate : 448 Kbps
Channel(s) : 6 channels
Channel positions : Front: L C R, Side: L R, LFE
Sampling rate : 48.0 KHz
Bit depth : 16 bits
Compression mode : Lossy
Stream size : 329 MiB (9%)
Language : Czech

Text
ID : 3
Format : UTF-8
Codec ID : S_TEXT/UTF8
Codec ID/Info : UTF-8 Plain Text
Title : Forced
Language : Czech



)..(




The.Expendables.3.2014.720p.BDRip.x264.DD5.1.CZ





__.__
Format : Matroska
Format version : Version 2
File size : 1.90 GiB
Duration : 2h 11mn
Overall bit rate : 2 064 Kbps

Video
ID : 1
Format : AVC
Format/Info : Advanced Video Codec
Format profile : [email protected]
Format settings, CABAC : Yes
Format settings, ReFrames : 2 frames
Codec ID : V_MPEG4/ISO/AVC
Duration : 2h 11mn
Bit rate : 1 645 Kbps
Width : 1 280 pixels
Height : 536 pixels
Display aspect ratio : 2.40:1
Frame rate : 23.976 fps
Color space : YUV
Chroma subsampling : 4:2:0
Bit depth : 8 bits
Scan type : Progressive
Bits/(Pixel*Frame) : 0.100
Stream size : 1.45 GiB (76%)

Audio
ID : 2
Format : AC-3
Format/Info : Audio Coding 3
Mode extension : CM (complete main)
Codec ID : A_AC3
Duration : 2h 11mn
Bit rate mode : Constant
Bit rate : 448 Kbps
Channel(s) : 6 channels
Channel positions : Front: L C R, Side: L R, LFE
Sampling rate : 48.0 KHz
Bit depth : 16 bits
Compression mode : Lossy
Stream size : 421 MiB (22%)
Language : Czech



)..(


18 bře 2018, 22:31
Profil
Zobrazit příspěvky za předchozí:  Seřadit podle  
Odeslat nové téma Odpovědět na téma  [ Příspěvků: 2 ] 

Všechny časy jsou v UTC + 1 hodina


Nemůžete zakládat nová témata v tomto fóru
Nemůžete odpovídat v tomto fóru
Nemůžete upravovat své příspěvky v tomto fóru
Nemůžete mazat své příspěvky v tomto fóru
Nemůžete přikládat soubory v tomto fóru









StahovaniZaSMS Pizza Modena MP3 free download