fastshare
Král Artuš: Legenda o meči / King Arthur: Legend... (2017)
Vypnout statistiky
KATEGORIEPOSLEDNÍ PŘÍSPĚVKYPOSLEDNÍ OZNÁMENÍSTATISTIKY UŽIVATELE
Nick: Anonymous
Příspěvků: 3379
Hodnost: Warman
Varování: 0
---
Právě je 26 dub 2018, 01:05





Všechny časy jsou v UTC + 1 hodina


Pravidla fóra







Odeslat nové téma Odpovědět na téma  [ Příspěvků: 2 ] 
 Král Artuš: Legenda o meči / King Arthur: Legend... (2017) 
Autor Zpráva
Colonel 3 rd class
Colonel 3 rd class

Registrován: 06 úno 2011, 19:29
Příspěvky: 490
Příspěvek Král Artuš: Legenda o meči / King Arthur: Legend... (2017)

Král Artuš: Legenda o meči / King Arthur: Legend of the Sword (2017)
Uploaded By - Europa2 | Enjoy and say Thanks !!

Obal/Cover:

Král Artuš: Legenda o meči / King Arthur: Legend... (2017)

Informácie/Informations:



Kvalita/Quality:

Jazyk: Czech
Subtitles: Ne

Format : Matroska at 950 Kbps
Length : 858 MiB for 2h 6mn

Video #0 : AVC at 803 Kbps
Aspect : 720 x 300 (2,40:1) at 23,976 fps

Audio #0 : MP3 at 128 Kbps
Infos : 2 kanály, 48,0 KHz


Stahuj/Downlaod:








Kvalita/Quality:

Format : AVI at 2 057 Kbps
Length : 1,81 GiB for 2h 6mn

Video #0 : MPEG-4 Visual at 1 598 Kbps
Aspect : 720 x 302 (2,40:1) at 23,976 fps

Audio #0 : AC3 at 448 Kbps
Infos : 6 kanály, 48,0 KHz


Stahuj/Downlaod:









Kvalita/Quality:

Format : AVI at 4 255 Kbps
Length : 3,75 GiB for 2h 6mn

Video #0 : MPEG-4 Visual at 3 796 Kbps
Aspect : 1 280 x 536 (2,40:1) at 23,976 fps

Audio #0 : AC3 at 448 Kbps
Infos : 6 kanály, 48,0 KHz


Stahuj/Downlaod:



Heslo/Password:


29 srp 2017, 14:04
Profil
Colonel
Colonel

Registrován: 15 zář 2017, 11:53
Příspěvky: 384
Příspěvek Re: Král Artuš: Legenda o meči / King Arthur: Legend... (201

Král Artuš: Legenda o meči / King Arthur: Legend of the Sword (2017)


Re: Král Artuš: Legenda o meči / King Arthur: Legend... (201





King.Arthur.Legend.of.the.Sword.2017.1080p.BDRip.x264.DD5.1.CZ

Format : Matroska
Format version : Version 4 / Version 2
File size : 3.46 GiB
Duration : 2h 6mn
Overall bit rate : 3 926 Kbps

Video
ID : 1
Format : AVC
Format/Info : Advanced Video Codec
Format profile : [email protected]
Format settings, CABAC : Yes
Format settings, ReFrames : 5 frames
Codec ID : V_MPEG4/ISO/AVC
Duration : 2h 6mn
Bit rate : 3 500 Kbps
Width : 1 920 pixels
Height : 800 pixels
Display aspect ratio : 2.40:1
Frame rate : 23.976 fps
Color space : YUV
Chroma subsampling : 4:2:0
Bit depth : 8 bits
Scan type : Progressive
Bits/(Pixel*Frame) : 0.095
Stream size : 3.00 GiB (87%)

Audio
ID : 2
Format : AC-3
Format/Info : Audio Coding 3
Mode extension : CM (complete main)
Codec ID : A_AC3
Duration : 2h 6mn
Bit rate mode : Constant
Bit rate : 448 Kbps
Channel(s) : 6 channels
Channel positions : Front: L C R, Side: L R, LFE
Sampling rate : 48.0 KHz
Bit depth : 16 bits
Compression mode : Lossy
Delay relative to video : -21ms
Stream size : 404 MiB (11%)
Title : DD 5.1
Language : Czech





12 bře 2018, 21:24
Profil
Zobrazit příspěvky za předchozí:  Seřadit podle  
Odeslat nové téma Odpovědět na téma  [ Příspěvků: 2 ] 

Všechny časy jsou v UTC + 1 hodina


Nemůžete zakládat nová témata v tomto fóru
Nemůžete odpovídat v tomto fóru
Nemůžete upravovat své příspěvky v tomto fóru
Nemůžete mazat své příspěvky v tomto fóru
Nemůžete přikládat soubory v tomto fóru









StahovaniZaSMS Pizza Modena MP3 free download