fastshare
Gattaca (1997)
Vypnout statistiky
KATEGORIEPOSLEDNÍ PŘÍSPĚVKYPOSLEDNÍ OZNÁMENÍSTATISTIKY UŽIVATELE
Nick: Anonymous
Příspěvků: 3361
Hodnost: Warman
Varování: 0
---
Právě je 15 lis 2018, 23:59





Všechny časy jsou v UTC + 1 hodina


Pravidla fóra







Odeslat nové téma Odpovědět na téma  [ Příspěvků: 17 ]  Přejít na stránku 1, 2  Další
 Gattaca (1997) 
Autor Zpráva
Private 2 nd class
Private 2 nd class

Registrován: 01 led 2008, 20:30
Příspěvky: 50
Příspěvek Gattaca (1997)

G A T T A C A / Gattaca (1997)

Gattaca (1997)
Gattaca (1997)


Gattaca (1997)

Gattaca (1997)
Drama / Sci-Fi / Thriller
USA, 1997, 101 min

Režie: Andrew Niccol
Hrají: Ethan Hawke, Uma Thurman, Jude Law, Xander Berkeley, Jayne Brook, Elias Koteas, Blair Underwood, Mason Gamble, William Lee Scott, Ernest Borgnine, Tony Shalhoub, Alan Arkin, Loren Dean, Maya Rudolph

Vincent je jeden z posledních lidí, který se narodil z lásky svých rodičů, a tudíž mimo dohled genetických inženýrů. Nedokonalý Vincent je "odsouzen" k práci uklízeče ve velkém centru pro pěstování dokonalých lidí Gattaca, ačkoliv sám tolik touží stát se kosmickým navigátorem. Nakonec volí cestu podvodu.

CSFD rating: 83%

Video
Kodek : XviD
Format: DVDrip AVI
Bit rate : 819 Kbps
Šířka : 720
Výška : 304
Zvuk
Kodek : MPEG1/2 L3
Bit rate : 128 Kbps
Kanály : 2
Vzorkovací rychlost : 44 KHz

Gattaca (1997)


Gattaca (1997)....BEZ HESLA, linky sa daju kombinovat


Naposledy upravil vanea dne 02 bře 2008, 11:05, celkově upraveno 1

10 led 2008, 14:14
Profil
Private
Private

Registrován: 06 led 2008, 10:18
Příspěvky: 12
Příspěvek Re: Gattaca (1997)

GATTACA / Gattaca (1997)

Re: Gattaca (1997)


CSFD rating: 83%

Video
Kodek : XviD
Format: DVDrip AVI
Bit rate : 819 Kbps
Šířka : 720
Výška : 304
Zvuk
Kodek : MPEG1/2 L3
Bit rate : 128 Kbps
Kanály : 2
Vzorkovací rychlost : 44 KHz

DOWNLOAD


02 bře 2008, 07:46
Profil
Private 1 st class
Private 1 st class

Registrován: 26 lis 2008, 19:13
Příspěvky: 17
Příspěvek Re: Gattaca (1997)

Re: Gattaca (1997)
Re: Gattaca (1997)

Zvuk:CZ
Titulky:NE
Velikost:700MB

Re: Gattaca (1997)
Re: Gattaca (1997)

_________________
Uploaduju jen na Hellshare a CZshare.Linky šiřte dál.


14 pro 2008, 09:43
Profil
Private
Private
Uživatelský avatar

Registrován: 15 pro 2008, 01:28
Příspěvky: 2
Příspěvek Re: Gattaca (1997)

Tenhle film měl dostat 10 Oskarů.....je jeden z nej filmů co znám.....díky za CZ verzi..znám ho už asi 5 let ale jen v US podání...díkyyy moooocc :-)


15 pro 2008, 01:31
Profil
Private
Private

Registrován: 02 led 2009, 17:22
Příspěvky: 3
Příspěvek Re: Gattaca (1997)

Gattaca

Re: Gattaca (1997)

CSFD:


Kvalita:
Re: Gattaca (1997)

CZshare:


No pass!


04 led 2009, 17:28
Profil
Private
Private

Registrován: 30 črc 2008, 19:45
Příspěvky: 9
Příspěvek Re: Gattaca (1997)

Re: Gattaca (1997)









Formát : AVI
Formát/Info : Audio Video Interleave
Velikost souboru : 702 MiB
Duration : 1h 42mn
Celkový BitRate : 960 Kbps
Použitý software : VirtualDubMod 1.5.4.1 (build 2066/release)
Enkódoval : VirtualDubMod build 2066/release
IAS1 : English

Video
Formát : MPEG-4 Visual
Format profile : Streaming [email protected]
Format settings, BVOP : Ano
Format settings, QPel : Ne
Format settings, GMC : No warppoints
Format settings, Matrix : Custom
Codec ID : XVID
Codec ID/Hint : XviD
Duration : 1h 42mn
Bit rate : 823 Kbps
Šířka : 720pixely
Výška : 304pixely
Poměr stran : 2.35
Frame rate : 25.000 fps
Rozlišení : 8 bits
Colorimetry : 4:2:0
Scan type : Progressive
Bits/(Pixel*Frame) : 0.150
Stream size : 601 MiB (86%)
Enkódoval : XviD 1.1.2 (UTC 2006-11-01)

Audio
Formát : MPEG Audio
Format version : Version 1
Format profile : Layer 3
Codec ID : 55
Codec ID/Hint : MP3
Duration : 1h 42mn
Bit rate mode : Constant
Bit rate : 128 Kbps
Kanál(y) : 2 kanály
Sampling rate : 44.1 KHz
Rozlišení : 16 bits
Stream size : 93.5 MiB (13%)
Alignment : Split accross interleaves
Interleave, duration : 40 ms (1.00 video frame)
Interleave, preload duration : 500 ms


Re: Gattaca (1997)







24 led 2009, 03:37
Profil
Corporal
Corporal
Uživatelský avatar

Registrován: 15 říj 2008, 05:49
Příspěvky: 78
Bydliště: Plzensko
Příspěvek Re: Gattaca (1997)

Gattaca

Re: Gattaca (1997)

Drama / Sci-Fi / Thriller
USA, 1997, 101 min

Režie: Andrew Niccol
Hrají: Ethan Hawke, Uma Thurman, Jude Law, Xander Berkeley, Jayne Brook, Elias Koteas, Blair Underwood, Mason Gamble, William Lee Scott, Ernest Borgnine, Tony Shalhoub, Alan Arkin, Loren Dean, Maya Rudolph, Dean Norris, Ken Marino


Vincent je jeden z posledních lidí, který se narodil z lásky svých rodičů, a tudíž mimo dohled genetických inženýrů. Nedokonalý Vincent je "odsouzen" k práci uklízeče ve velkém centru pro pěstování dokonalých lidí Gattaca, ačkoliv sám tolik touží stát se kosmickým navigátorem. Nakonec volí cestu podvodu.


Format : AVI
Format/Info : Audio Video Interleave
Format/Family : RIFF
File size : 702 MiB
PlayTime : 1h 42mn
Bit rate : 960 Kbps
Writing application : VirtualDubMod 1.5.4.1 (build 2066/release)
Writing library : VirtualDubMod build 2066/release
IAS1 : English

Video #0
Codec : XviD
Codec/Family : MPEG-4
Codec/Info : XviD project
Codec profile : Streaming Video Profile/Level 1
Codec settings/Packe : No
Codec settings/BVOP : Yes
Codec settings/QPel : No
Codec settings/GMC : 0
Codec settings/Matri : Custom
PlayTime : 1h 42mn
Bit rate : 813 Kbps
Width : 720 pixels
Height : 304 pixels
Display Aspect ratio : 2.35
Frame rate : 25.000 fps
Resolution : 8 bits
Chroma : 4:2:0
Interlacement : Progressive

Audio #0
Codec : MPEG-1 Audio layer 3
PlayTime : 1h 42mn
Bit rate : 128 Kbps
Bit rate mode : CBR
Channel(s) : 2 channels
Sampling rate : 44.1 KHz
Resolution : 16 bits
Writing library : Xing (new)



02 bře 2009, 15:30
Profil
Master Sergant
Master Sergant

Registrován: 25 pro 2007, 17:11
Příspěvky: 148
Příspěvek Re: Gattaca (1997)

Gattaca (1997)

__.__
CSFD: 83%


DVD RIP

Formát : AVI
Velikost souboru : 978 MiB
Duration/String : 1h 42mn

Video
Formát : MPEG-4 Visual
CodecID : DivX 5
Bit rate : 1 200 Kbps
Šířka : 720pixely
Výška : 304pixely

Poměr stran : 2.35
Frame rate : 25,000 fps

Audio
Formát : MPEG Audio
CodecID : MP3
Bit rate : 128 Kbps
Kanál(y) : 2 kanály
Sampling rate : 48,0 KHz

)..(

:--:
klokan


22 bře 2009, 11:32
Profil
Sergeant
Sergeant

Registrován: 26 kvě 2009, 07:15
Příspěvky: 113
Příspěvek Re: Gattaca (1997)

Re: Gattaca (1997)

    CSFD


__.__
    Trvání: 102:10
    Audio: MPEG Layer-3 / 44100 Hz / 128 kbps
    Video: XviD MPEG-4 (www.xvid.org) / 720x304 / 826 kbps

)..(


04 lis 2009, 10:47
Profil
Private
Private
Uživatelský avatar

Registrován: 22 čer 2009, 03:38
Příspěvky: 13
Příspěvek Re: Gattaca (1997)

Gattaca 1997 - CZ

Re: Gattaca (1997)

Vincent je jeden z posledních lidí, který se narodil z lásky svých rodičů, a tudíž mimo dohled genetických inženýrů. Nedokonalý Vincent je "odsouzen" k práci uklízeče ve velkém centru pro pěstování dokonalých lidí Gattaca, ačkoliv sám tolik touží stát se kosmickým navigátorem. Nakonec volí cestu podvodu. (oficiální text distributora)



701 MB / 720x304 / 937kbps



27 bře 2010, 15:57
Profil
Sergeant
Sergeant

Registrován: 18 lis 2006, 16:56
Příspěvky: 103
Příspěvek Re: Gattaca (1997)

Gattaca / Gattaca (1997)







Bez hesla


02 dub 2010, 14:50
Profil
Uploader
Uploader
Uživatelský avatar

Registrován: 29 čer 2008, 12:00
Příspěvky: 126
Bydliště: Warez city, Warez
Příspěvek Re: Gattaca (1997)

Gattaca (1997)
Re: Gattaca (1997)
Re: Gattaca (1997)

Re: Gattaca (1997)

Re: Gattaca (1997)

Re: Gattaca (1997)

_________________
i_m_a_g_e


12 říj 2010, 14:54
Profil
Warman
Warman
Uživatelský avatar

Registrován: 08 črc 2007, 10:57
Příspěvky: 8225
Příspěvek Re: Gattaca (1997)

Gattaca (1997)
Re: Gattaca (1997)
Drama / Sci-Fi / Thriller
USA, 1997, 101 min

Re: Gattaca (1997)

Režie: Andrew Niccol
Hrají: Ethan Hawke, Uma Thurman, Jude Law, Xander
Berkeley, Jayne Brook, Elias Koteas, Blair Underwood,
Mason Gamble, William Lee Scott, Ernest Borgnine,
Tony Shalhoub, Alan Arkin, Loren Dean, Maya Rudolph,
Dean Norris, Ken Marino


Obsah:

Vincent je jeden z posledních lidí, který se narodil z
lásky svých rodičů, a tudíž mimo dohled genetických
inženýrů. Nedokonalý Vincent je "odsouzen" k práci
uklízeče ve velkém centru pro pěstování dokonalých lidí
Gattaca, ačkoliv sám tolik touží stát se kosmickým
navigátorem. Nakonec volí cestu podvodu.

Re: Gattaca (1997)
General : Gattaca.avi
Format : AVI at 960 Kbps
Length : 702 MiB for 1h 42mn 10s 0ms
Video #0 : MPEG-4 Visual at 823 Kbps
Aspect : 720 x 304 (2.368) at 25.000 fps
Audio #0 : MPEG Audio at 128 Kbps
Infos : 2 kanály, 44,1 KHz

Re: Gattaca (1997)

Registrácia pre stahovanieTU
Registrace pro stahování ZDE
registration for download HERE
PODĚKOVÁNÍ VÁM NEUBLÍŽÍ A MĚ MOTIVUJE
enjoy_by_lepin
Re: Gattaca (1997)
Jak předejít infarktu?Poslat do řiti každého dřív,než Tě nasere,,,


21 říj 2010, 06:55
Profil
Příspěvek Re: Gattaca (1997)

Gattaca (1997)

Re: Gattaca (1997)



Díky genetickým objevům se už projektují i bezchybné děti. Holčička, nebo kluk? Vincent se ale narodil bez zkumavky, z lásky. Není ideálním produktem biologů a proto se nemůže splnit jeho sen a on se nikdy nedostane do kosmu. Ledaže by zfalšoval svůj genetický původ a obstaral si vzorky uměle vytvořeného genetického jedince. Kdo ale mohl tušit, že vzorky budou pocházet od hledaného zločince!

Oscar 1 nominace: Výprava

Rok 1997
Pův. název Gattaca
Země USA
Režie Andrew Niccol
Hrají Ethan Hawke, Uma Thurman, Jude Law, Xander Berkeley, Jayne Brook, Elias Koteas, Blair Underwood, Mason Gamble, William Lee Scott, Ernest Borgnine, Tony Shalhoub, Alan Arkin, Loren Dean, Maya Rudolph, Dean Norris, Ken Marino
Zvuk Česky
Žánr Drama, Sci-fi, Thriller

AVI - 701MB - 01:42:10
Video: XVID 720x304 25.00fps 822Kbps [Video 0]
Audio: MPEG Audio Layer 3 44100Hz stereo 128Kbps [Audio 1]



02 pro 2010, 15:09
Warman
Warman
Uživatelský avatar

Registrován: 25 lis 2008, 11:02
Příspěvky: 6583
Příspěvek Re: Gattaca (1997)

Gattaca (1997)
Re: Gattaca (1997)
AKTUÁLNĚ - 84%
Re: Gattaca (1997)

Citace:
Obsah:
Drama / Sci-Fi / Thriller

USA, 1997, 101 min
Režie: Andrew Niccol
Hudba: Michael Nyman
Hrají: Ethan Hawke, Uma Thurman, Jude Law, Xander Berkeley, Jayne Brook, Elias Koteas, Blair Underwood, Mason Gamble, William Lee Scott, Ernest Borgnine, Tony Shalhoub, Alan Arkin, Loren Dean, Maya Rudolph, Dean Norris, Ken Marino


Vincent je jeden z posledních lidí, který se narodil z lásky svých rodičů, a tudíž mimo dohled genetických inženýrů. Nedokonalý Vincent je "odsouzen" k práci uklízeče ve velkém centru pro pěstování dokonalých lidí Gattaca, ačkoliv sám tolik touží stát se kosmickým navigátorem. Nakonec volí cestu podvodu.

Re: Gattaca (1997)

Re: Gattaca (1997)
Citace:
General
Complete name : Z:\DVD UPLOAD\Gattaca (1997) DVDRip CZ.avi
Format : AVI
Format/Info : Audio Video Interleave
File size : 702 MiB
Duration : 1h 42mn
Overall bit rate : 960 Kbps
Writing application : VirtualDubMod 1.5.4.1 (build 2066/release)
Writing library : VirtualDubMod build 2066/release

Video
ID : 0
Format : MPEG-4 Visual
Format profile : Advanced [email protected]
Format settings, BVOP : Yes
Format settings, QPel : No
Format settings, GMC : No warppoints
Format settings, Matrix : Custom
Codec ID : XVID
Codec ID/Hint : XviD
Duration : 1h 42mn
Bit rate : 823 Kbps
Width : 720 pixels
Height : 304 pixels
Display aspect ratio : 2.35:1
Frame rate : 25.000 fps
Color space : YUV
Chroma subsampling : 4:2:0
Bit depth : 8 bits
Scan type : Progressive
Bits/(Pixel*Frame) : 0.150
Stream size : 601 MiB (86%)
Writing library : XviD 1.1.2 (UTC 2006-11-01)

Audio
ID : 1
Format : MPEG Audio
Format version : Version 1
Format profile : Layer 3
Codec ID : 55
Codec ID/Hint : MP3
Duration : 1h 42mn
Bit rate mode : Constant
Bit rate : 128 Kbps
Channel(s) : 2 channels
Sampling rate : 44.1 KHz
Stream size : 93.5 MiB (13%)
Alignment : Split accross interleaves
Interleave, duration : 40 ms (1.00 video frame)
Interleave, preload duration : 500 ms
Language : Czech


Re: Gattaca (1997)


Bez hesla
Přidán záznam na opravu dat 5%


01 črc 2011, 20:23
Profil
Zobrazit příspěvky za předchozí:  Seřadit podle  
Odeslat nové téma Odpovědět na téma  [ Příspěvků: 17 ]  Přejít na stránku 1, 2  Další

Všechny časy jsou v UTC + 1 hodina


Nemůžete zakládat nová témata v tomto fóru
Nemůžete odpovídat v tomto fóru
Nemůžete upravovat své příspěvky v tomto fóru
Nemůžete mazat své příspěvky v tomto fóru
Nemůžete přikládat soubory v tomto fóru









StahovaniZaSMS Pizza Modena MP3 free download