fastshare
Drákula: Neznámá legenda / Dracula Untold (2014)
Vypnout statistiky
KATEGORIEPOSLEDNÍ PŘÍSPĚVKYPOSLEDNÍ OZNÁMENÍSTATISTIKY UŽIVATELE
Nick: Anonymous
Příspěvků: 3361
Hodnost: Warman
Varování: 0
---
Právě je 20 srp 2018, 09:25





Všechny časy jsou v UTC + 1 hodina


Pravidla fóra







Odeslat nové téma Odpovědět na téma  [ Příspěvků: 3 ] 
 Drákula: Neznámá legenda / Dracula Untold (2014) 
Autor Zpráva
Private
Private

Registrován: 05 bře 2010, 09:19
Příspěvky: 7
Příspěvek Drákula: Neznámá legenda / Dracula Untold (2014)

Drákula: Neznámá legenda / Dracula Untold (2014)

CSFD:




Citace:
Format : AVI at 2 457 Kbps
Length : 1.58 GiB for 1h 32mn 8s 356ms
Video : MPEG-4 Visual at 2 000 Kbps
Aspect : 720 x 320 (2.353) at 23.976 fps
Audio : AC-3 at 448 Kbps
Infos : 6 kanály, 48,0 KHz


)..(

http://www.superbshare.com/file/uS0c


28 úno 2015, 17:45
Profil
Private 1 st class
Private 1 st class

Registrován: 05 led 2010, 14:43
Příspěvky: 17
Příspěvek Drákula: Neznámá legenda / Dracula Untold (2014)


Drákula: Neznámá legenda / Dracula Untold (2014)


Drákula: Neznámá legenda / Dracula Untold (2014)

Citace:
http://www.csfd.cz/film/236436-drakula-neznama-legenda/prehled/


Citace:
Fantasy / Drama / Akční / Válečný
USA, 2014, 92 min
Dabing CZ

Format : AVI
Format/Info : Audio Video Interleave
Format profile : OpenDML
File size : 2.67 GiB
Duration : 1 h 32 min
Overall bit rate : 4 141 kb/s
Writing application : VirtualDubMod 1.5.10.2 (build 2540/release)
Writing library : VirtualDubMod build 2540/release

Video
ID : 0
Format : MPEG-4 Visual
Format profile : Advanced [email protected]
Format settings, BVOP : 2
Format settings, QPel : No
Format settings, GMC : No warppoints
Format settings, Matrix : Default (H.263)
Codec ID : XVID
Codec ID/Hint : XviD
Duration : 1 h 32 min
Bit rate : 3 490 kb/s
Width : 1 280 pixels
Height : 536 pixels
Display aspect ratio : 2.40:1
Frame rate : 23.976 (23976/1000) FPS
Color space : YUV
Chroma subsampling : 4:2:0
Bit depth : 8 bits
Scan type : Progressive
Compression mode : Lossy
Bits/(Pixel*Frame) : 0.212
Stream size : 2.25 GiB (84%)
Writing library : XviD 1.2.1 (UTC 2008-12-04)

Audio
ID : 1
Format : AC-3
Format/Info : Audio Coding 3
Mode extension : CM (complete main)
Format settings, Endianness : Big
Codec ID : 2000
Duration : 1 h 32 min
Bit rate mode : Constant
Bit rate : 640 kb/s
Channel(s) : 6 channels
Channel positions : Front: L C R, Side: L R, LFE
Sampling rate : 48.0 kHz
Frame rate : 31.250 FPS (1536 spf)
Compression mode : Lossy
Stream size : 422 MiB (15%)
Alignment : Split accross interleaves
Interleave, duration : 42 ms (1.00 video frame)
Interleave, preload duration : 500 ms





09 říj 2016, 17:19
Profil
Private
Private

Registrován: 10 lis 2008, 23:38
Příspěvky: 4
Příspěvek Re: Drákula: Neznámá legenda / Dracula Untold (2014)

DITE SI S TÍM DO HD A NESPAMUJTE TO TU!


18 bře 2018, 12:45
Profil
Zobrazit příspěvky za předchozí:  Seřadit podle  
Odeslat nové téma Odpovědět na téma  [ Příspěvků: 3 ] 

Všechny časy jsou v UTC + 1 hodina


Nemůžete zakládat nová témata v tomto fóru
Nemůžete odpovídat v tomto fóru
Nemůžete upravovat své příspěvky v tomto fóru
Nemůžete mazat své příspěvky v tomto fóru
Nemůžete přikládat soubory v tomto fóru









StahovaniZaSMS Pizza Modena MP3 free download